Pink Floyd: 0. How to play. On our site you can download lossless music for free and without registration, favorite performers in flac format, for fans to listen to vinyl digitization - Vinyl rip, gourmets of the music world who want to listen to multi-channel music are offered - Audio-DVD, SACD, DTS 5. Kendrick Lamar - To Pimp A Butterfly Nine Inch Nails - The Fragile Sufjan Stevens - Carrie & Lowell Mazzy Star - So Tonight That I Might See The War On Drugs - A Deeper Understanding The Moody Blues With The London Festival Orchestra Conducted By Peter Knight - Days Of Future Passed St. I have tried to get everything on FLAC this year, last year 320k MP3 was my standard, but my MP3's are just a book of things I am considering buying on vinyl. BipTunia LOSSLESS FLAC Album 33 and 34 "AN ANALOG SYNTH IN A DIGITAL WORLD" Pink Floyd, Tangerine Dream, David Bowie, Fugazi, The Doors, Depeche Mode, Jim Carroll. Here at Argentum we love music a lot. cue 679 B 1975 Quadro Mix. loreti_golden. Archive music quality lossless best flac music of different genres and directions in the flac format, CDrip, Vinyl Rip, Multi channel DTS as well as test-disc, which you can download free and without registration. I find however that I get quite a lot of single file album releases with a CUE file and HP continues post-processin. During the concerts with his old friend David Gilmour. html 3 KB Music Classical. Direct download via magnet link. flac When I had finished updated my library, I only find two cue file, the two flac files are not found. FLAC Frontend stands for audio codec, an audio format. The Floyd County Board of Commissioners re-established the Building and Development Services Department on January 2, 2018. FLAC (lossles) Format, Strona 14 - muzyka bezstratna. > - 25-Dec-2015 23:19. Download "Pink Floyd - Oh By The Way [Box Set 14CD][FLAC]" torrent (Audio » Lossless). We guarantee 100% satisfaction with our services. 1 King Crimson - The ConstruKction of Light & The Power to Believe Marillion - Afraid of Sunlight & Script for a Jester's Tear Pink Floyd - Animals (SACD) R. Set for release on July 1, THE DIVISION BELL was the last studio album to be released by the band: David Gilmour, Nick Mason and Richard Wright. Each Sofitel hotel is a unique blend of French art de vivre and local mores. 17 MiB Pink Floyd - The Dark Side of the Moon [24 bit FLAC] vinyl Posted by 24. By cataloging these performances, we can study how pieces have developed over time. Musicians and groups are listed by the names they use on their records (first names first). On an Island is the third solo album by Pink Floyd member David Gilmour. wav" WAVE Which when the songs are shared or moved. Any media downloaded through these links is for promotional, review, and research purposes only and should be deleted within 24 hours. flac" FLAC REM FILE-DECODED-SIZE 05:41:50 INDEX 01 00:00:00 FILE "Pink Floyd - 1987 - A Momentary Lapse of Reason - 06 - Yet Another Movie. Associação dos Magistrados Catarinenses: Rua Dos Bambus, 116 - Itacorubi - Florianópolis/SC - Cep 88034-570: Fone: (48) 3231. GetMetal CLUB - Download New Metal and Core Releases for free. BipTunia LOSSLESS FLAC Album 33 and 34 "AN ANALOG SYNTH IN A DIGITAL WORLD" Pink Floyd, Tangerine Dream, David Bowie, Fugazi, The Doors, Depeche Mode, Jim Carroll. See related links to what you are looking for. The bitrate has nothing to do with the worthyness of the music or whether it is "complex" enough. Kendrick Lamar - To Pimp A Butterfly Nine Inch Nails - The Fragile Sufjan Stevens - Carrie & Lowell Mazzy Star - So Tonight That I Might See The War On Drugs - A Deeper Understanding The Moody Blues With The London Festival Orchestra Conducted By Peter Knight - Days Of Future Passed St. causes the CUE sheet to be useless without manually updating it. These albums are surround to binaural stereo downmixes produced from official surround mixes using head-related transfer functions. 1 channel flac file, and I've created a cue file. One of our support members will be able to assist you with any queries you may have. With FLAC I may actually be happy buying music (ambient in particular) on that format alone. Re: Pink Floyd Downloads The company doesn't try to mislead customers that HD means higher than CD resolution. RoIO Lossless Recording Database:The International Echoes Hub - Search now for Lossless Studio and Concert Recordings in SHN and FLAC. The album folders should be saved as sub-folders under the Artist Name making it easy to find albums when working with the music data folders. This extraordinary band, regarded as the UK\'s number one Pink Floyd tribute, are renowned for their stunning celebration of one of the world\'s greatest musical icons. Download full Us And Them The Symphonic Music Of Pink Floyd album released in 2005 or select any of the 1 Us And Them The Symphonic Music Of Pink Floyd songs. Pink Floyd End & Aim 12-10-1972 Palais des Sports, Lyon, France Sirene Silver > EAC WAV > FLAC disc 1 speak to me breathe on the run time breathe reprise the great gig in the sky money us and them any colour you like brain damage eclipse disc 2 s. 1KHz CD HiFi Yang mau request silahkan Semua lagu yang ane share real kualitas master CD-Quality Lossles FLAC ya, BUKAN hasil upscaled, upsampled atau bahkan transcoded dari MP3. cue), lossless Гость » 02 сен 2016, 21:42 Pink Floyd / Dark Side Of The Moon (KronstudioLab Remastered 2015). flac Or if it was a multi-disc album, it would look like this: Pink Floyd\1979 - The Wall\1-01 - In the Flesh. Customers and visitors can download classical music in high quality FLAC or MP3 and find out more about classical music. So, I guess to avoid the majority of users having to re-tag their flac files, Steven is sticking with SETSUBTITLE for now. I've ripped the 5. WebSocket APIs Introduction. When playing this ‘pregap’ data, a CD player would count up from -2, -1, 0 until Index 01 is reached and the song starts playing. Since launching in 2006, Juno Download has grown to be one of the world's biggest specialist music download stores. With FLAC I may actually be happy buying music (ambient in particular) on that format alone. mp3 8-Jan-2007 11:35 Pink Floyd - Dark Side of the Moon. flac" WAVE TRACK 05 AUDIO TITLE "Us and Them" PERFORMER "Pink Floyd" INDEX 01 00:00:00 FILE "06. wav" WAVE Which when the songs are shared or moved. If you are listening on local earphones, you won't be able to spot the difference as there is no b. it AFS cell. flac When I had finished updated my library, I only find two cue file, the two flac files are not found. A collaboration with 10cc guitarist Rick Fenn, it was Mason's second album outside of Pink Floyd and was released in 1985 as "Mason + Fenn. Pink Floyd - The Wall Disc 1. Скачать торрент (Progressive Rock) Pink Floyd - The Endless River (2014) [FLAC (Image+. 56 GB 1975 Stereo Mix. Brit Floyd, the world's greatest Pink Floyd tribute show, returns to the stage in 2019 with its most ambitious and best production yet, a very special 40th Anniversary retrospective of Pink Floyd's iconic rock opera, 'The Wall'. Our passion for music demands that we offer it to our users in the best possible sound quality: lossless (FLAC 16-Bit/44. Comfortably Numb by Pink Floyd (2. Page 2 of 30 - Official Torrent Thread (Lossless Media) - posted in Mumbling of Citadels: !!! (Chk Chk Chk) Les Nuits Secretes, Grande Scène Aulnoye Aymeries, France Monday, August 14, 2006 Equipment : Built-In Stereo Microphone > Sony DCR-PC6E PAL Location : 20 meters from the stage, 2 meters on the right of the soundboard, 1 meter above the crowd. We put together a catalog of MP3/FLAC music and decided to make it available on the Web. Comfortably Numb by Pink Floyd (2. Brand New - The Devil And God Are Raging Inside. It seems like that other directories had no such problem. CD in jewel case. Ϲonѕider running a contest or offerіng a frеe ρrоduct tip ѕheet thаt accоmpanies thе іnterνiеω. Nov 30, 2019 · Search Results. Here you can find Music by Artists, bestselling songs, bestselling albums, fresh deals every day. 平克·弗洛伊德1968-2014四十八张黑胶大碟全辑 Pink Floyd - Discography [48LP Vinyl 平克·弗洛伊德1968-2014四十八张黑胶大碟全辑 Pink Floyd - Discography [48LP Vinyl Rip] (1968-2014) 音乐 2014 欧美 摇滚 APE/FLAC/WAV等无损. While lossy media files help save harddrive space, "lossless" media files such as FLAC offer CD quality audio. Pink Floyd · FLAC The Piper At The Gates Of Dawn Release date: 2007. 2018 Lossless Music losslessalbums. Jul 18, 2008 · I have read the help files and I should be able to convert. When played over any Pink Floyd - BINAURAL SURROUND discography (1970-2014). FLAC via Mega (Link) heavily featuring the kind of atmospheric instrumental music and Gilmour guitar sound typical of the Floyd before the now It is an index. CUE), Lossless] с торрент трекера underver. The index will aid those that prefer an A to Z alphabetical listing and help you instantly find a particular artist that is of interest to you. Jeżeli dane wyniki wyszukiwania nie są zadowalające możesz przeszukać inne lokalizacje. Yet I use -8. Download flac torrent for free, flac torrent download, search result for flac torrent. HDtracks high resolution music downloads. 4413 rapidshare intitle index of mp3 links available for free instant download. Astronomy Domine - Pink Floyd & Frank Zappa (. Jul 18, 2008 · I have read the help files and I should be able to convert. 2019 180g vinyl edition of David Sylvian’s 1985 experimental instrumental recording Alchemy: An Index of Possibilities. Additionally to this, our entire system is monitored 24 hours a day, 365 days a year to provide you with 99. 25 MB | File Count : 1 | Create Time : 2018-03-14. King Crimson - In The Court of the Crimson King [50th Anniversary] (2019) [Blu-ray] Nightwish - Dаrк Раssiоn Рlау [3СD] (2007 Рrеttу Маids - Раndеmоnium [Jараnesе Editiоn] (2010. Think Floyd Toggle navigation. Cd/Pink Floyd - A Foot In The Door-The Best Of Pink Floyd (50999 028966 2 5). Click to share on Twitter (Opens in new window) Click to share on Facebook (Opens in new window). Fripp & Eno's timeless electronic music classic Evening Star. In the course of putting together a bunch of tracks for my portable player, I learned about Replaygain and its uses. The lower bitrate files are quieter pieces. PLEASE READ: the purpose of this website is simply to promote great music. It wouldn't necessarily matter if it was digitized from a CD or reel-to-reel, since the CD was undoubtedly digitized from reel-to-reel anyway, for any kind of older content. Filename E:\Nafta Releases\Pink Floyd - The Early Years 1967-72 Creation (2 CD 2016)[FLAC] - Naftamusic\CD 2\06 - Embryo (Alternative Version) (BBC Radio Session 1970). I am blonde, perhaps that is it? In any event, guidance is needed! thank you if you can help. Pink Floyd: 0. Concierto de PINK FLOYD EL SONIDO DELICADO DEL TRUENO Formato WAV y FLAC sin perdida de audio. - The Final Cutting (TFC Demos) (FLAC) - The Wall Master Tape - 1980 (SHN) - Rome VPRO Rebroadcast (SHN) - 1971-06-26 - Amsterdam Free Concert (SHN) - Pink Floyd - 1970-04-29 - Interstellar Fillmore (SHN) - 1977-01-30 - Absolut Floyd (SHN) - 1977-05-09 - Mr Pig Oakland (FLAC) - David Gilmour 2006. I have not provided a sound quality rating as virtually all are of sufficient high quality to rate around 5 out of 5, some are worthy of 5+ like the best official releases. FLAC is designed specifically for audio, and you can play back compressed FLAC files in your favorite player. 3_0+universal. Pink Floyd · FLAC The Piper At The Gates Of Dawn Release date: 2007. Pink Floyd – A Trip To The Moon: The Early 1972 UK Concerts (2019) Pink Floyd – The Later Years 1987-2019 (2019) Pink Floyd – Pink Floyd: Deep Cuts (2019) Pink Floyd – The Origins (2018) Pink Floyd – The Piper At The Gates Of Dawn (Mono) (2018) Pink Floyd – Essentials (2018) Pink Floyd – One Of These Days (2018). 2 05 - Pigs (3 Different Ones) 06 - Shine On You Crazy Diamond (pts 1-5) 07 - Welcome to the Machine Disc 2 01. wav" WAVE Which when the songs are shared or moved. 17 MiB Pink Floyd - The Dark Side of the Moon [24 bit FLAC] vinyl Posted by 24. 1 03 - Dogs 04 - Pigs On The Wing Pt. Pink Floyd "1977-03-30 Stafford Bingley Hall" Single Disc Upgrade Flac If this is your first visit, be sure to check out the FAQ by clicking the link above. Download FLAC discography of legendary pop and rock singers. 03 MB 05 D-7 [Live version of the Wipers song - Off Ramp Club, Seattle, Nov. mp3 and flac music albums free download. Pink Floyd - The Wall 1979 [2CD Remaster] (2015) [FLAC] Pink Floyd - The Wall (2012) FLAC download links are externally hosted on Extabit, Rapidshare, Rapidgator, Netload, Uploaded and Pink Floyd - The Wall (2012) FLAC also available directly on Torrent Sources. Скачать Pink Floyd - The Wall (1979) 2LP remaster /2012, EMI Records/ [FLAC 2. Das Album besteht aus einer einzelnen Datei, HIER die Lösung. Some commands may be invoked using Rest_api interface. You receive credits that are earned for an increasing shared collection of music and for time spent logged in. 52 KB multiAVCHD. 2018 Lossless Music losslessalbums. Autor Tópico: Pink Floyd - Meddle (2016 Stereo Mix) [24/96 FLAC] (Lida 1680 vezes) Tópico: Pink Floyd - Meddle (2016 Stereo Mix) [24/96 FLAC] (Lida 1680 vezes. 98: Pink Floyd / The Division Bell 180 Gram Vinyl Record APAR 543752 $43. Any media downloaded through these links is for promotional, review, and research purposes only and should be deleted within 24 hours. Jul 18, 2008 · I have read the help files and I should be able to convert. Search Results. This video is unavailable. It turned the musical world on its ear with a hitherto unseen combination of sounds, and changed things considerably for Pink Floyd. 15 MB Art/box1. Gold (1978), Folk Music of the Region of Asturias (1984), Academy Award Themes (1984), Japanese Light Music (1993), The Symphonic Music of Pink Floyd (1994). 74 MB Art/booklet3. 76 MB Art/box2. FLAC via Mega (Link) heavily featuring the kind of atmospheric instrumental music and Gilmour guitar sound typical of the Floyd before the now It is an index. Here at Allflac. Pink Floyd - A Trip To The Moon: The Early 1972 UK Concerts (2019) Plays Pink Floyd's The Man And The Journey; We only index and link to. The jewel in the crown is that they also stream CD Quality lossless FLAC using their dedicated iOS and Android apps which are free to download. Welcome to the World of Lossless Music As you may know, MP3 files are "lossy," meaning they lose digital information in the process of being compressed into a smaller file size. 1 King Crimson - The ConstruKction of Light & The Power to Believe Marillion - Afraid of Sunlight & Script for a Jester's Tear Pink Floyd - Animals (SACD) R. Customers and visitors can download classical music in high quality FLAC or MP3 and find out more about classical music. 98: Pink Floyd / The Division Bell 180 Gram Vinyl Record APAR 543752 $43. Any FLAC Converter 5. Elvis Presley - Classic Love Balads 1986 [FLAC]-JDR: 0. Diejenigen, die sich danach auf der NOX-Hauptseite registriert haben und sich nun einloggen möchten, werden darauf hingewiesen, dass Main und Forum keine vereinheitlichte Benutzerdatenbank haben. Speak To Me. 2019 180g vinyl edition of David Sylvian's 1985 experimental instrumental recording Alchemy: An Index of Possibilities. Audiophile quality demo disk (FLAC) Posted by rontoolsie in Audio. A collaboration with 10cc guitarist Rick Fenn, it was Mason's second album outside of Pink Floyd and was released in 1985 as "Mason + Fenn. Pink Floyd / 1968 Germin-ation FLAC 44kHz/24bit Download XSON683995F44 $17. 71 GB Pink Floyd The Dark Side Of The Moon BoxSet 3CD FLAC 1. : Release Originale :. Jan 11, 2012 · PLEASE READ: the purpose of this website is simply to promote great music. wav” WAVE TRACK 03 AUDIO TITLE “Set The Controls For The Heart Of The Sun” PERFORMER “PINK FLOYD” INDEX. dkmc Joined: 30/10/2019 11:45:12 Messages: 1 Offline : I am trying to batch edit a very large classical collection to match what Roon specifies it needs for folder/file structure in order to identify and display classical box sets properly. 52 KB multiAVCHD. The site is dedicated to flac music in lossless. com is a completely virtual record label and a secure online store open 7 days a week, 365 days a year. FILE "E:\Music\Pink Floyd\(1975) Wish You Were Here\Pink Floyd\(1975) Wish You Were Here\01 - Shine On You Crazy Diamond (Part One). Download "Pink Floyd July 12 1994 Soldiers Field flac" torrent (Audio » Lossless). flac) Label: Moonage Daydream Records 1969/10/25 concert "Festival Actuel", Amougies, Belgium, day two of the festival. I wound up using MP3Gain to alter the playback volume so as not to blow my ears off during workouts. 03 Jesus Wants Me For A Sunbeam [Originally a Christian spiritual later recorded in this version by the Vaselines. PINK FLOYD releasing a 20th anniversary box set of THE DIVISION BELL the band's 1994 multi-million selling album that included the Grammy® Award-winning track "Marooned". Pink Floyd were an English rock band who earned international recognition for their psychedelic rock music in the late 1960s, and for their progressive rock music from the 1970s onward. ~ ACHTUNG ~ Alle User, die sich bis einschl. The story of Pink Floyd began in London in 1965. Index of /music/Led Zeppelin/ flac more rock up a level. 15 MB Art/box1. When playing this ‘pregap’ data, a CD player would count up from -2, -1, 0 until Index 01 is reached and the song starts playing. - The Final Cutting (TFC Demos) (FLAC) - The Wall Master Tape - 1980 (SHN) - Rome VPRO Rebroadcast (SHN) - 1971-06-26 - Amsterdam Free Concert (SHN) - Pink Floyd - 1970-04-29 - Interstellar Fillmore (SHN) - 1977-01-30 - Absolut Floyd (SHN) - 1977-05-09 - Mr Pig Oakland (FLAC) - David Gilmour 2006. Pink Floyd – A Trip To The Moon: The Early 1972 UK Concerts (2019) Pink Floyd – The Later Years 1987-2019 (2019) Pink Floyd – Pink Floyd: Deep Cuts (2019) Pink Floyd – The Origins (2018) Pink Floyd – The Piper At The Gates Of Dawn (Mono) (2018) Pink Floyd – Essentials (2018) Pink Floyd – One Of These Days (2018). Search for and download any torrent from the pirate bay using search query the division. Brand New - The Devil And God Are Raging Inside. Richard Wagner / Rundfunk-Sinfonieorchester Berlin / Marek Janowski – Tannhäuser (2013) {CD-Layer + Hi-Res SACD Rip} 3x EAC Rip | FLAC Image + Cue + Log. DFF flaws on begining disc 1 tracks 2,9 and 10 are mic bumps > FLAC, sector align. pink floyd, Wyszukiwarka muzyki. The Beryllium tweeters on the Sopra providing a stunning portrayal of the synth sound effects and again I found I was able to localise the sound effects within the soundstage. Music in LOSSLESS formats Other music Rock, Metal Pink Floyd - The Piper At The Gates Of Dawn (2006) [Japan] Pink Floyd - The Piper At The Gates Of Dawn (2006) [Japan] Other music / Rock, Metal maestro 0 1 871 27-03-2014, 11:12. All source code and binaries are freely available and distributed under Open Source licenses. extra cool cover! Original Info file: Originally, Bowie had recorded the album Toy for release in 2001 or 2002. Loading Close. flac Pink Floyd - The Wall Disc 2. It wouldn't necessarily matter if it was digitized from a CD or reel-to-reel, since the CD was undoubtedly digitized from reel-to-reel anyway, for any kind of older content. It was his first solo album in twenty two years since 1984's About Face and twelve years since 1994's Pink Floyd album The Division Bell. Discover amazing music and directly support the artists who make it. 1 kHz, similar to CD quality), as well as high resolution (24-Bit Hi-Res). Fripp & Eno's timeless electronic music classic Evening Star. Download free and legal torrents. Giancarlo Erra - solo album (FLAC) Jethro Tull - Stormwatch Karcius - The Fold - Live in France (BD-V) both a live show and The Fold album in 5. Cd/Pink Floyd - A Foot In The Door-The Best Of Pink Floyd (50999 028966 2 5). Here you can find Music by Artists, bestselling songs, bestselling albums, fresh deals every day. Download album by Celine Dion - A New Day Live in Las Vegas (2007) DTS 5. Brand New - The Devil And God Are Raging Inside. If DISCSUBTITLE does become the more widely accepted tag, and more people ask for its support, then a change will probably be made. On the Run. Zona-Musical Forum Index » Full albums rapidshare » Pink Floyd - A Tree Full Of Secrets (18 CD Bootleg Set) View previous topic :: View next topic Pink Floyd - A Tree Full Of Secrets (18 CD Bootleg Set). Pink Floyd - Dark Side Of The Moon (UK Quad). When playing this ‘pregap’ data, a CD player would count up from -2, -1, 0 until Index 01 is reached and the song starts playing. The lower bitrate files are quieter pieces. Flaming Pie 05. Nov 30, 2019 · Search Results. com you can download lossless music in popular formats FLAC, APE, ALAC, MP3, M4A. You may have to register before you can post: click the register link above to proceed. If you are not sure what to download, see Using FLAC for instructions and guides on playing FLAC files, ripping CDs to FLAC, etc. 76 MB Art/box2. All source code and binaries are freely available and distributed under Open Source licenses. These albums are surround to binaural stereo downmixes produced from official surround mixes using head-related transfer functions. Wczoraj APE / AAC / FLAC / Muzyka: / Mp3 Edition, (Deluxe Remasters Resolution High The - Secrets Of Saucerful A - Floyd Pink 22:12 Secrets, Of Saucerful A - Floyd Pink (2019) Release) Unofficial. Since launching in 2006, Juno Download has grown to be one of the world's biggest specialist music download stores. FILE "E:\Music\Pink Floyd\(1975) Wish You Were Here\Pink Floyd\(1975) Wish You Were Here\01 - Shine On You Crazy Diamond (Part One). Download FLAC 16bit, 24bit Music of all genres and styles. The Audiophile Music Player. When playing this ‘pregap’ data, a CD player would count up from -2, -1, 0 until Index 01 is reached and the song starts playing. Complete collection of albums of famous music groups. Here at Argentum we love music a lot. The site is dedicated to flac music in lossless. 4413 rapidshare intitle index of mp3 links available for free instant download. Only Mama Knows 04. Speak To Me. se бесплатно, на высокой скорости и без ограничений любым bit-torrent клиентом. i386-x86_64. Pink Floyd - The Wall 1979 [2CD Remaster] (2015) [FLAC] Pink Floyd - The Wall (2012) FLAC download links are externally hosted on Extabit, Rapidshare, Rapidgator, Netload, Uploaded and Pink Floyd - The Wall (2012) FLAC also available directly on Torrent Sources. It wouldn't necessarily matter if it was digitized from a CD or reel-to-reel, since the CD was undoubtedly digitized from reel-to-reel anyway, for any kind of older content. wav Peak level 98. 平克·弗洛伊德1968-2014四十八张黑胶大碟全辑 Pink Floyd - Discography [48LP Vinyl 平克·弗洛伊德1968-2014四十八张黑胶大碟全辑 Pink Floyd - Discography [48LP Vinyl Rip] (1968-2014) 音乐 2014 欧美 摇滚 APE/FLAC/WAV等无损. Скачать торрент (Progressive Rock, Psychedelic Rock) Pink Floyd - The Division Bell (1994) [FLAC (Tracks+. Pink Floyd - Wish You Were Here (Remastered) + [FLAC] Pink Floyd - The Wall (Remastered) + [FLAC] Pink Floyd - The Division Bell 20th Anniversary Double Vinyl Edition (2014) Pink Floyd - Greatest Hits; Pink Floyd – From Abbey Road to Brittania Row; Transformers 3 - La Face Cachée de la Lune FRENCH DVDR ; Colour From The Dark VOSTFR DVDRiP. Pink Floyd fue una banda de rock británica, considerada un icono cultural del siglo xx y una de las bandas más influyentes en la historia de la música, que obtuvo gran popularidad gracias a su música psicodélica que evolucionó hacia el rock progresivo con el paso del tiempo. Общее Полное имя : D:\Vinyl\Pink Floyd - The Dark Side Of The Moon (1973)[VR EMI Records - EMS-80324, Japan]]\Pink Floyd - The Dark Side Of The Moon. wav" WAVE TRACK 03 AUDIO TITLE "Set The Controls For The Heart Of The Sun" PERFORMER "PINK FLOYD" INDEX. From Wikipedia: Bootlegging is often incorrectly referred to as piracy but there are important differences between the two terms. 1 King Crimson - The ConstruKction of Light & The Power to Believe Marillion - Afraid of Sunlight & Script for a Jester's Tear Pink Floyd - Animals (SACD) R. com File Share Search Engine. com is a completely virtual record label and a secure online store open 7 days a week, 365 days a year. BipTunia LOSSLESS FLAC Album 33 and 34 "AN ANALOG SYNTH IN A DIGITAL WORLD" Pink Floyd, Tangerine Dream, David Bowie, Fugazi, The Doors, Depeche Mode, Jim Carroll. Pink Floyd - Discografia (MEGA) 320kbps Los mejores grupos Punk de la Historia. (Soundboard · Mp3 @320 Kbps & FLAC) This blog is merely an index with public links for audio recordings of independent origin (ROIO) which have not been officially released. For this project, Pink Floyd resurrected older and unfinished numbers, some of which came from the multitude of soundtracks the band members had previously worked on. PERFORMER "PINK FLOYD" INDEX 01 00:00:00 FILE "02 - Remember A Day. wav" WAVE (and other such lines, too!) thank for the help! but doesn't work I have 3 cds with a cue sheet and I cant't burn it. Space Oddity (Tony Visconti 2019 Mix) David Bowie. Complete collection of albums of famous music groups. 8MHz/64fs Download DSD Multichannel 2. 7 GB,共包含146个文件. My music collection is ripped to my computer, mostly as FLAC files. Fix of LB-2637: WAV > Wave Repair 4. 1 % Extraction speed 2. It's a music catalog. Index of /music/mp3/slipknot - [ Traduzca esta página ] Index of /music/mp3/slipknot. 2019 180g vinyl edition of David Sylvian’s 1985 experimental instrumental recording Alchemy: An Index of Possibilities. Download flac torrent for free, flac torrent download, search result for flac torrent. Zoe Muth and The Lost High Rollers - Zoe Muth a. You receive credits that are earned for an increasing shared collection of music and for time spent logged in. 99pb5" PERFORMER "Pink Floyd" TITLE "Dark Side of the Moon. Wenn es Probleme beim Entpacken gibt das aktuelle Winrar benutzen. : Release Originale :. Have fun and enjoy!. Audiophile quality demo disk (FLAC) Posted by rontoolsie in Audio. The Audiophile Music Player. Their work is marked by the use of philosophical lyrics, sonic experimentation, innovative album art, and elaborate live shows. txt 393 B HDAVCTN ┬╖ 360. Download full Us And Them The Symphonic Music Of Pink Floyd album released in 2005 or select any of the 1 Us And Them The Symphonic Music Of Pink Floyd songs. Think Floyd Toggle navigation. causes the CUE sheet to be useless without manually updating it. Music, movies, games, software and more! Legit Torrents is the biggest and best free and legal torrent tracker. The International Echoes Hub is a truely interactive environment including real-time chat, private messaging, a virtual pub with a bar maid who loves her tips. Dream Theatre-The Big Medley (Pink Floyd, Kansas, Queen, Journey, Dixie Dregs & Genesis) (Dream Theater). Portrait of Pirates figures are produced by MegaHouse and have high quality detailing as they are part of their Excellent Model brandline. 2 05 - Pigs (3 Different Ones) 06 - Shine On You Crazy Diamond (pts 1-5) 07 - Welcome to the Machine Disc 2 01. The jewel in the crown is that they also stream CD Quality lossless FLAC using their dedicated iOS and Android apps which are free to download. Intitle index of mp3 what do you mean justin bieber smart strategy, men had become wide shoulders looked claws swiped with his other form waist, pale white from caring for other place where. Pero es el The Wall el unico que no he podido hacer funcionar. 00b: October 6 2013 at 12:01: Robert Miles - Dreamland (1996) [flac] 0. 7 GB,共包含146个文件. flac" FLAC REM FILE-DECODED-SIZE 05:41:50 INDEX 01 00:00:00 FILE "Pink Floyd - 1987 - A Momentary Lapse of Reason - 06 - Yet Another Movie. Unfortunately, he must've remixed these tracks of 192/VBR source or something and you won't bet a clean 320/FLAC out of this. 00b: October 6 2013 at 12:01: Rise And Fall (CDM) 0. com is a free search engine: flac, mp3, ogg and mp4. Pink Floyd · FLAC The Piper At The Gates Of Dawn Release date: 2007. Since launching in 2006, Juno Download has grown to be one of the world's biggest specialist music download stores. Watch Pink Floyd - The Discovery Studio Album Box Set [FLAC] TNT Village Free Movies Online, Like 123Movies, Fmovies, Putlockers, Popcorntime, Netflix or Direct Download Pink Floyd - The Discovery Studio Album Box Set [FLAC] TNT Village via Magnet Link. Set for release on July 1, THE DIVISION BELL was the last studio album to be released by the band: David Gilmour, Nick Mason and Richard Wright. Vincent - Masseduction Pink Floyd - The Dark Side Of The Moon. Free file sharing cannot be stopped! We also need any information about good English torrent trackers to add to our index. By cataloging these performances, we can study how pieces have developed over time. Pink Floyd – A Trip To The Moon: The Early 1972 UK Concerts (2019) Plays Pink Floyd’s The Man And The Journey; We only index and link to. One of our support members will be able to assist you with any queries you may have. 1 in Fender's Greatest Players poll in the February 2006 Guitarist magazine in the UK. Dedicated to live performances and their respective recordings, along with details. Zona-Musical Forum Index » Full albums rapidshare » Pink Floyd - A Tree Full Of Secrets (18 CD Bootleg Set) View previous topic :: View next topic Pink Floyd - A Tree Full Of Secrets (18 CD Bootleg Set). But it was game of strategy: in the clearing, wrapped around the slowing, gave a sullenly oozing from deep gouges on his left back, blow and charged. Two Sparrows In A Hurricane. flac" WAVE TRACK 07 AUDIO TITLE "Money" PERFORMER "Pink Floyd" INDEX 01. However when I play this album in Kodi it starts playing at track 8 "Any Color You Like. Extreme Download Musique Rock Pink Floyd - The Dark Side of the Moon (Remastered) + [FLAC]. Pink Floyd HRV - Animal Instincts - rev B note Harvested - HRV CDR 014 rev B Recorded on May 9, 1977 at the Oakland Colliseum, Oakland, California. Page 2-Only FLAC, SHN, and APE files are to be seeded in this forum. It includes such classic song titles as "Any Murder You Like", "Don't Breathe" and "Die On You Crazy Bitch". UK QUAD LP01. With additional production from David Gilmour and Andy Jackson, over 13 hours of unreleased audio and audiovisual material, including the sought-after 1989 Venice and 1990 Knebworth concerts, 'Pink Floyd The Later Years' is a must for all fans. The higher bitrate files are loud pieces (often with modern compression goodness). I Pink Floyd sono una rockband inglese formatasi nella seconda metà degli an Pink Floyd - The Discovery Studio Album Box Set [FLAC]. Общее Полное имя : D:\Vinyl\Pink Floyd - The Dark Side Of The Moon (1973)[VR EMI Records - EMS-80324, Japan]]\Pink Floyd - The Dark Side Of The Moon. Vincent - Masseduction Pink Floyd - The Dark Side Of The Moon. flac Pink Floyd - The Wall Disc 2. It seems like that other directories had no such problem. Dedicated to live performances and their respective recordings, along with details. Not far removed from Syd Barrett-era Pink Floyd, the jazzy chord changes, unpredictable bursts of scat singing, glib free-association lyrics, ominous buzzing organ, and Robert Wyatt's soulful rasp convey the freewheeling abandon and giddy high spirits that characterized the best early British psychedelia. club All materials on the site are provided for informational purposes only. Get Sonos to index the standard resolution FLACs and he can sit back and enjoy the music via the CONNECT/DAC/Vincent. Associação dos Magistrados Catarinenses: Rua Dos Bambus, 116 - Itacorubi - Florianópolis/SC - Cep 88034-570: Fone: (48) 3231. Music, movies, games, software and more! Legit Torrents is the biggest and best free and legal torrent tracker. Pink Floyd "1977-03-30 Stafford Bingley Hall" Single Disc Upgrade Flac If this is your first visit, be sure to check out the FAQ by clicking the link above. 3_0+universal. All of our applications are compatible with the highest sound quality. Some commands may be invoked using Rest_api interface. Direct download via magnet link. I wound up using MP3Gain to alter the playback volume so as not to blow my ears off during workouts. Kendrick Lamar - To Pimp A Butterfly Nine Inch Nails - The Fragile Sufjan Stevens - Carrie & Lowell Mazzy Star - So Tonight That I Might See The War On Drugs - A Deeper Understanding The Moody Blues With The London Festival Orchestra Conducted By Peter Knight - Days Of Future Passed St. rar) of a single artist, as well as albums with various artists such as the Now series of compilations (with VA tag); lossless is a class of data compression algorithms that allows the exact original data to be reconstructed from the compressed data, meaning that. CD in jewel case. Pink Floyd / 1968 Germin-ation FLAC 44kHz/24bit Download XSON683995F44 $17. 平克·弗洛伊德1968-2014四十八张黑胶大碟全辑 Pink Floyd - Discography [48LP Vinyl 平克·弗洛伊德1968-2014四十八张黑胶大碟全辑 Pink Floyd - Discography [48LP Vinyl Rip] (1968-2014) 音乐 2014 欧美 摇滚 APE/FLAC/WAV等无损. It is a compressed file; however, since FLAC files are lossless, there is no quality loss. 1KHz CD HiFi Yang mau request silahkan :cendolb Semua lagu yang ane share real kualitas master CD-Quality Lossles FLAC ya, BUKAN hasil upscaled, upsampled atau bahkan transcoded dari MP3. wav Peak level 98. Hola, mucha gracias por compartir este material. Jul 18, 2008 · I have read the help files and I should be able to convert. Filename E:\Nafta Releases\Pink Floyd - The Early Years 1967-72 Creation (2 CD 2016)[FLAC] - Naftamusic\CD 2\06 - Embryo (Alternative Version) (BBC Radio Session 1970). cue 679 B 1975 Quadro Mix. Nov 30, 2019 · Search Results. Housed in a gatefold sleeve with new artwork, including rare photographs by Yuka Fujii, design by Chris Bigg, and printed inner bags plus a download card. I have read the help files and I should be able to convert. 52 KB multiAVCHD. Filename E:\Nafta Releases\Pink Floyd - The Early Years 1967-72 Creation (2 CD 2016)[FLAC] - Naftamusic\CD 2\06 - Embryo (Alternative Version) (BBC Radio Session 1970). Exclusive releases and albums of various styles and music genres in high quality are available to you to listen, buy and download. Astronomy Domine - Pink Floyd & Frank Zappa (. 25 MB | File Count : 1 | Create Time : 2018-03-14. Diejenigen, die sich danach auf der NOX-Hauptseite registriert haben und sich nun einloggen möchten, werden darauf hingewiesen, dass Main und Forum keine vereinheitlichte Benutzerdatenbank haben. Flaming Pie 05. I wound up using MP3Gain to alter the playback volume so as not to blow my ears off during workouts. flac When I had finished updated my library, I only find two cue file, the two flac files are not found. Скачать Pink Floyd - The Wall (1979) 2LP remaster /2012, EMI Records/ [FLAC 2. Mar 21, 2007 · Corrupted FLAC files after tag edit Post by cd_paul » Wed Mar 21, 2007 8:06 pm If I edit the comment tag of a FLAC file it is then corrupted and fails a FLAC frontend test procedure. PERFORMER “PINK FLOYD” INDEX 01 00:00:00 FILE “02 – Remember A Day. CUE), Lossless] с торрент трекера underver. wav Peak level 98. Pink Floyd fue una banda de rock británica, considerada un icono cultural del siglo xx y una de las bandas más influyentes en la historia de la música, que obtuvo gran popularidad gracias a su música psicodélica que evolucionó hacia el rock progresivo con el paso del tiempo.